Bible Pay

Read 2368 times

  • Rob Andrews
  • Administrator

    • 3850


    • 89
    • June 05, 2017, 08:09:04 PM
    • Patmos, Island Of
    more
Biblepay Unchained Mobile Wallet Thread
« on: July 06, 2021, 08:22:28 PM »
Please help test Unchained:

- Test unchained as a mobile wallet, so we can have an alternative to Breadwallet for mobile devices (think people who do not have a PC or are traveling etc)
- Test unchained add a prayer, add a comment, add a video in Prod

To start with unchained, go here either from a PC or from your mobile wallet:

https://unchained.biblepay.org

To create your wallet, go to account and click Generate new address.  Note that the system starts in TESTNET.  You can now click the MainNet button and do some testing in MainNet also.

We now have six separate sidechains running (3 in testnet and 3 in mainnet) holding our videos and DSQL data.  You will see that if you enter a comment or add a video to Prod, this video will only be in the Prod chain, while making a comment in TestNet will affect the testnet chain.  This will be useful as we build out our social media platforms (one for churches one for users).

One thing I am looking for is suggestions that we need to make this solution very usable as a mobile wallet.  For example, that it feels clunky to do something on the iPhone and the suggestion.

One definite feature that we need is the ability to enter a PASSWORD to spend funds.  Currently we have seed words, restore address and spend which appears to be fine for a person who always has control of their mobile device, but on shared computers and shared phones, someone can spend the funds if they can access your unchained page.  So I am aware of this and have it on my todo list to add a "password" (similar to our wallet unlock option in the core wallet).  The idea is your wallet will remain Locked and Encrypted if it has a password on it, and will require the password to spend from it (this password will decipher your key and will not be stored on the device).

« Last Edit: July 06, 2021, 08:31:24 PM by Rob Andrews »


  • sunk818
  • Global Moderator

    • 519


    • 36
    • April 24, 2018, 02:02:20 PM
    more
Re: Biblepay Unchained Mobile Wallet Thread
« Reply #1 on: July 08, 2021, 09:32:37 AM »
Please help test Unchained:

- Test unchained as a mobile wallet, so we can have an alternative to Breadwallet for mobile devices (think people who do not have a PC or are traveling etc)
- Test unchained add a prayer, add a comment, add a video in Prod

To start with unchained, go here either from a PC or from your mobile wallet:

https://unchained.biblepay.org

To create your wallet, go to account and click Generate new address.  Note that the system starts in TESTNET.  You can now click the MainNet button and do some testing in MainNet also.



may I have some funds for yQFpQWhMg6jE95BPmJ1AyDardLXNgaVhDr (testnet)? testing mobile.
BH6oxjLkyz3z8FYpvU3ZR7PTZ31Xt9DkXZ


  • sunk818
  • Global Moderator

    • 519


    • 36
    • April 24, 2018, 02:02:20 PM
    more
Re: Biblepay Unchained Mobile Wallet Thread
« Reply #2 on: July 08, 2021, 10:59:26 AM »
I was able to send 29 BBP to the mainnet mobile wallet.


Unable to send out. Whether wallet encrypted or not, I get the following error.



Failure[/size]Invalid BitcoinSecret[/size][/color][/font]
BH6oxjLkyz3z8FYpvU3ZR7PTZ31Xt9DkXZ


  • Rob Andrews
  • Administrator

    • 3850


    • 89
    • June 05, 2017, 08:09:04 PM
    • Patmos, Island Of
    more
Re: Biblepay Unchained Mobile Wallet Thread
« Reply #3 on: July 08, 2021, 02:42:59 PM »
I was able to send 29 BBP to the mainnet mobile wallet.


Unable to send out. Whether wallet encrypted or not, I get the following error.



Failure[/size]Invalid BitcoinSecret[/size][/color][/font]


Please try again; new code has been deployed...



  • Rob Andrews
  • Administrator

    • 3850


    • 89
    • June 05, 2017, 08:09:04 PM
    • Patmos, Island Of
    more
Re: Biblepay Unchained Mobile Wallet Thread
« Reply #4 on: July 17, 2021, 04:03:04 PM »
** Testing Distinct Voting **

So we have discovered one huge requirement we need to build for our future social media platform (Prayers, Comments, Videos, Church channels, and wikipedia articles):

We need the ability to display Votes per distinct User, by distinct object.
Over the next 90 days, I will add a feature to ensure a user is distinct (or verified) by either :  A) Linking a cell-phone # to the CPK, B) Staking 4.5MM bbp, C) Sending a token to their house using our greeting card system.

In the mean time (this system is still in beta), the unique user is determined by your Unchained wallet address.

I have created a Voting system for any object (right now that means Prayers, Comments, Videos).

Could you please go through and Upvote or Downvote some videos and some prayers, and some comments?

We will look at these values to ensure its working properly, by distinct user.
Each user gets One vote per object (obviously).

This will be nice to build on for future features, cause then we can simply attach a star rating, or add this Voter to any new object we create as well...

Btw, the votes are stored in our sidechain.



  • earlzmoade
  • Developer

    • 284


    • 46
    • August 02, 2018, 03:22:01 AM
    more
Re: Biblepay Unchained Mobile Wallet Thread
« Reply #5 on: July 18, 2021, 02:54:44 AM »
Mornin.

Quote
Please help test Unchained:

- Test unchained as a mobile wallet, so we can have an alternative to Breadwallet for mobile devices (think people who do not have a PC or are traveling etc)
- Test unchained add a prayer, add a comment, add a video in Prod

To start with unchained, go here either from a PC or from your mobile wallet:

I tested the wallet function. I sent 100 bbp to the newly generated unchained adress and it worked no problems. Then i sent back 50 bbp to my  desktop wallet adress and it was instant. felt smooth and all.   So i encountered no problems in the wallet function.

Continued to test the video upload feature. For me it "hanged up"  or how to say, it just went on and on to over 8000% .

The video file was 546mb and format mp4
Currently trying to reupload and see if it works.  I will test out the prayer and comment feature later on.

Have a good one.
Joshua 1:9
Have i not commanded you?
Be strong and courageous. Do not be afraid;
do not be discouraged, for the Lord your God
will be with you wherever you go.


  • Rob Andrews
  • Administrator

    • 3850


    • 89
    • June 05, 2017, 08:09:04 PM
    • Patmos, Island Of
    more
Re: Biblepay Unchained Mobile Wallet Thread
« Reply #6 on: July 18, 2021, 08:59:14 AM »
Mornin.

I tested the wallet function. I sent 100 bbp to the newly generated unchained adress and it worked no problems. Then i sent back 50 bbp to my  desktop wallet adress and it was instant. felt smooth and all.   So i encountered no problems in the wallet function.

Continued to test the video upload feature. For me it "hanged up"  or how to say, it just went on and on to over 8000% .

The video file was 546mb and format mp4
Currently trying to reupload and see if it works.  I will test out the prayer and comment feature later on.

Have a good one.

Hi bro Earlz, great to see you!
Thanks for testing!

Thats great on the first part, as far as using the wallet.
So trying to reproduce the file upload:  I was able to upload a 99 meg video without an issue, but I am starting to see a problem with files bigger than 100meg.
Plz try a video smaller than 100meg as a test just for confirmation.

I see that programatically, users who upload videos bigger than 100 meg (I uploaded 250 meg videos) through biblepay.dll, those work.
But through the Page, we are recieving a 413 error (file too large for CDN).
Im going to look for a fix for that for the front-end in the mean time....



  • Rob Andrews
  • Administrator

    • 3850


    • 89
    • June 05, 2017, 08:09:04 PM
    • Patmos, Island Of
    more
Re: Biblepay Unchained Mobile Wallet Thread
« Reply #7 on: July 18, 2021, 09:16:30 AM »
Hi bro Earlz, great to see you!
Thanks for testing!

Thats great on the first part, as far as using the wallet.
So trying to reproduce the file upload:  I was able to upload a 99 meg video without an issue, but I am starting to see a problem with files bigger than 100meg.
Plz try a video smaller than 100meg as a test just for confirmation.

I see that programatically, users who upload videos bigger than 100 meg (I uploaded 250 meg videos) through biblepay.dll, those work.
But through the Page, we are recieving a 413 error (file too large for CDN).
Im going to look for a fix for that for the front-end in the mean time....

Ok, please try now, it should now allow uploads Up to 700 megs.

Above that we will need a special file splitter page, and/or require the user to use the DLL to upload the really big files.
Once we get rolling we can put a bounty out for a dev to enhance the splitter page for bigger than 1gig etc.




  • earlzmoade
  • Developer

    • 284


    • 46
    • August 02, 2018, 03:22:01 AM
    more
Re: Biblepay Unchained Mobile Wallet Thread
« Reply #8 on: July 21, 2021, 06:44:48 AM »
Hello brother Rob.

I have tested the "add prayer" feature and it was smooth, aswell as leaving a comment and thumbs up on the individual prayer requests.

Still i have not managed to upload the video file.
Here is the first file i tested:

Code: [Select]
General
Complete name                            : C:\Users\Prosit\Desktop\Rock Church - Life Without Limbs - Nick Vujicic by Nick Vujicic.mp4
Format                                   : MPEG-4
Format profile                           : Base Media / Version 2
Codec ID                                 : mp42 (isom/mp42)
File size                                : 547 MiB
Duration                                 : 1 h 9 min
Overall bit rate mode                    : Variable
Overall bit rate                         : 1 094 kb/s
Encoded date                             : UTC 2020-12-21 03:05:17
Tagged date                              : UTC 2020-12-21 03:05:17
gsst                                     : 0
gstd                                     : 4199816

Video
ID                                       : 1
Format                                   : AVC
Format/Info                              : Advanced Video Codec
Format profile                           : [email protected]
Format settings                          : CABAC / 3 Ref Frames
Format settings, CABAC                   : Yes
Format settings, Reference frames        : 3 frames
Codec ID                                 : avc1
Codec ID/Info                            : Advanced Video Coding
Duration                                 : 1 h 9 min
Bit rate                                 : 962 kb/s
Width                                    : 1 280 pixels
Height                                   : 720 pixels
Display aspect ratio                     : 16:9
Frame rate mode                          : Constant
Frame rate                               : 29.970 (30000/1001) FPS
Color space                              : YUV
Chroma subsampling                       : 4:2:0
Bit depth                                : 8 bits
Scan type                                : Progressive
Bits/(Pixel*Frame)                       : 0.035
Stream size                              : 481 MiB (88%)
Title                                    : ISO Media file produced by Google Inc. Created on: 12/20/2020.
Writing library                          : x264 core 155 r2901 7d0ff22
Encoded date                             : UTC 2020-12-21 03:05:17
Tagged date                              : UTC 2020-12-21 03:05:17
Color range                              : Limited
Color primaries                          : BT.709
Transfer characteristics                 : BT.709
Matrix coefficients                      : BT.709
Codec configuration box                  : avcC

Audio
ID                                       : 2
Format                                   : AAC LC
Format/Info                              : Advanced Audio Codec Low Complexity
Codec ID                                 : mp4a-40-2
Duration                                 : 1 h 9 min
Bit rate mode                            : Variable
Bit rate                                 : 128 kb/s
Channel(s)                               : 2 channels
Channel layout                           : L R
Sampling rate                            : 44.1 kHz
Frame rate                               : 43.066 FPS (1024 SPF)
Compression mode                         : Lossy
Stream size                              : 64.1 MiB (12%)
Title                                    : ISO Media file produced by Google Inc. Created on: 12/20/2020.
Language                                 : English
Encoded date                             : UTC 2020-12-21 03:05:17
Tagged date                              : UTC 2020-12-21 03:05:17

Figured i reencode the video file and shrink file size abit so the i tried upload this one:

Code: [Select]
General
Complete name                            : C:\Users\Prosit\Downloads\Rock Church - Life Without Limbs - Nick Vujicic.m4v
Format                                   : MPEG-4
Format profile                           : Base Media / Version 2
Codec ID                                 : mp42 (isom/iso2/mp41)
File size                                : 380 MiB
Duration                                 : 1 h 9 min
Overall bit rate                         : 759 kb/s
Encoded date                             : UTC 2021-07-20 09:47:47
Tagged date                              : UTC 2021-07-20 09:47:47
Writing application                      : HandBrake 1.3.3 2020061300

Video
ID                                       : 1
Format                                   : HEVC
Format/Info                              : High Efficiency Video Coding
Format profile                           : [email protected]@Main
Codec ID                                 : hvc1
Codec ID/Info                            : High Efficiency Video Coding
Duration                                 : 1 h 9 min
Bit rate                                 : 589 kb/s
Width                                    : 1 278 pixels
Height                                   : 720 pixels
Display aspect ratio                     : 16:9
Frame rate mode                          : Constant
Frame rate                               : 29.970 (30000/1001) FPS
Color space                              : YUV
Chroma subsampling                       : 4:2:0
Bit depth                                : 8 bits
Bits/(Pixel*Frame)                       : 0.021
Stream size                              : 295 MiB (78%)
Writing library                          : x265 3.2.1+1-b5c86a64bbbe:[Windows][GCC 9.2.0][64 bit] 8bit+10bit+12bit
Encoding settings                        : cpuid=1111039 / frame-threads=4 / numa-pools=24,0 / wpp / no-pmode / no-pme / no-psnr / no-ssim / log-level=2 / input-csp=1 / input-res=1278x720 / interlace=0 / total-frames=0 / level-idc=0 / high-tier=1 / uhd-bd=0 / ref=3 / no-allow-non-conformance / no-repeat-headers / annexb / no-aud / no-hrd / info / hash=0 / no-temporal-layers / open-gop / min-keyint=30 / keyint=300 / gop-lookahead=0 / bframes=4 / b-adapt=0 / b-pyramid / bframe-bias=0 / rc-lookahead=15 / lookahead-slices=4 / scenecut=40 / radl=0 / no-splice / no-intra-refresh / ctu=64 / min-cu-size=8 / no-rect / no-amp / max-tu-size=32 / tu-inter-depth=1 / tu-intra-depth=1 / limit-tu=0 / rdoq-level=0 / dynamic-rd=0.00 / no-ssim-rd / signhide / no-tskip / nr-intra=0 / nr-inter=0 / no-constrained-intra / strong-intra-smoothing / max-merge=2 / limit-refs=3 / no-limit-modes / me=1 / subme=2 / merange=57 / temporal-mvp / no-hme / weightp / no-weightb / no-analyze-src-pics / deblock=0:0 / sao / no-sao-non-deblock / rd=2 / selective-sao=4 / no-early-skip / rskip / fast-intra / no-tskip-fast / no-cu-lossless / no-b-intra / no-splitrd-skip / rdpenalty=0 / psy-rd=2.00 / psy-rdoq=0.00 / no-rd-refine / no-lossless / cbqpoffs=0 / crqpoffs=0 / rc=crf / crf=25.0 / qcomp=0.60 / qpstep=4 / stats-write=0 / stats-read=0 / ipratio=1.40 / pbratio=1.30 / aq-mode=2 / aq-strength=1.00 / cutree / zone-count=0 / no-strict-cbr / qg-size=32 / no-rc-grain / qpmax=69 / qpmin=0 / no-const-vbv / sar=1 / overscan=0 / videoformat=5 / range=0 / colorprim=1 / transfer=1 / colormatrix=1 / chromaloc=0 / display-window=0 / cll=0,0 / min-luma=0 / max-luma=255 / log2-max-poc-lsb=8 / vui-timing-info / vui-hrd-info / slices=1 / no-opt-qp-pps / no-opt-ref-list-length-pps / no-multi-pass-opt-rps / scenecut-bias=0.05 / no-opt-cu-delta-qp / no-aq-motion / no-hdr / no-hdr-opt / no-dhdr10-opt / no-idr-recovery-sei / analysis-reuse-level=5 / scale-factor=0 / refine-intra=0 / refine-inter=0 / refine-mv=1 / refine-ctu-distortion=0 / no-limit-sao / ctu-info=0 / no-lowpass-dct / refine-analysis-type=0 / copy-pic=1 / max-ausize-factor=1.0 / no-dynamic-refine / no-single-sei / no-hevc-aq / no-svt / no-field / qp-adaptation-range=1.00
Encoded date                             : UTC 2021-07-20 09:47:47
Tagged date                              : UTC 2021-07-20 09:47:47
Color range                              : Limited
Color primaries                          : BT.709
Transfer characteristics                 : BT.709
Matrix coefficients                      : BT.709
Codec configuration box                  : hvcC

Audio
ID                                       : 2
Format                                   : AAC LC
Format/Info                              : Advanced Audio Codec Low Complexity
Codec ID                                 : mp4a-40-2
Duration                                 : 1 h 9 min
Bit rate mode                            : Constant
Bit rate                                 : 161 kb/s
Channel(s)                               : 2 channels
Channel layout                           : L R
Sampling rate                            : 44.1 kHz
Frame rate                               : 43.066 FPS (1024 SPF)
Compression mode                         : Lossy
Stream size                              : 80.7 MiB (21%)
Title                                    : Stereo
Language                                 : English
Default                                  : Yes
Alternate group                          : 1
Encoded date                             : UTC 2021-07-20 09:47:47
Tagged date                              : UTC 2021-07-20 09:47:47


Still i dont get it to upload the video file. I noticed after a while on unchained site i got the message:
Quote
The page was not displayed because the request entity is too large.
  Figure i test out some pictures and pdfs next..
Joshua 1:9
Have i not commanded you?
Be strong and courageous. Do not be afraid;
do not be discouraged, for the Lord your God
will be with you wherever you go.


  • Rob Andrews
  • Administrator

    • 3850


    • 89
    • June 05, 2017, 08:09:04 PM
    • Patmos, Island Of
    more
Re: Biblepay Unchained Mobile Wallet Thread
« Reply #9 on: July 26, 2021, 03:10:51 PM »
Hello brother Rob.

I have tested the "add prayer" feature and it was smooth, aswell as leaving a comment and thumbs up on the individual prayer requests.

Still i have not managed to upload the video file.
Here is the first file i tested:

Code: [Select]
General
Complete name                            : C:\Users\Prosit\Desktop\Rock Church - Life Without Limbs - Nick Vujicic by Nick Vujicic.mp4
Format                                   : MPEG-4
Format profile                           : Base Media / Version 2
Codec ID                                 : mp42 (isom/mp42)
File size                                : 547 MiB
Duration                                 : 1 h 9 min
Overall bit rate mode                    : Variable
Overall bit rate                         : 1 094 kb/s
Encoded date                             : UTC 2020-12-21 03:05:17
Tagged date                              : UTC 2020-12-21 03:05:17
gsst                                     : 0
gstd                                     : 4199816

Video
ID                                       : 1
Format                                   : AVC
Format/Info                              : Advanced Video Codec
Format profile                           : [email protected]
Format settings                          : CABAC / 3 Ref Frames
Format settings, CABAC                   : Yes
Format settings, Reference frames        : 3 frames
Codec ID                                 : avc1
Codec ID/Info                            : Advanced Video Coding
Duration                                 : 1 h 9 min
Bit rate                                 : 962 kb/s
Width                                    : 1 280 pixels
Height                                   : 720 pixels
Display aspect ratio                     : 16:9
Frame rate mode                          : Constant
Frame rate                               : 29.970 (30000/1001) FPS
Color space                              : YUV
Chroma subsampling                       : 4:2:0
Bit depth                                : 8 bits
Scan type                                : Progressive
Bits/(Pixel*Frame)                       : 0.035
Stream size                              : 481 MiB (88%)
Title                                    : ISO Media file produced by Google Inc. Created on: 12/20/2020.
Writing library                          : x264 core 155 r2901 7d0ff22
Encoded date                             : UTC 2020-12-21 03:05:17
Tagged date                              : UTC 2020-12-21 03:05:17
Color range                              : Limited
Color primaries                          : BT.709
Transfer characteristics                 : BT.709
Matrix coefficients                      : BT.709
Codec configuration box                  : avcC

Audio
ID                                       : 2
Format                                   : AAC LC
Format/Info                              : Advanced Audio Codec Low Complexity
Codec ID                                 : mp4a-40-2
Duration                                 : 1 h 9 min
Bit rate mode                            : Variable
Bit rate                                 : 128 kb/s
Channel(s)                               : 2 channels
Channel layout                           : L R
Sampling rate                            : 44.1 kHz
Frame rate                               : 43.066 FPS (1024 SPF)
Compression mode                         : Lossy
Stream size                              : 64.1 MiB (12%)
Title                                    : ISO Media file produced by Google Inc. Created on: 12/20/2020.
Language                                 : English
Encoded date                             : UTC 2020-12-21 03:05:17
Tagged date                              : UTC 2020-12-21 03:05:17

Figured i reencode the video file and shrink file size abit so the i tried upload this one:

Code: [Select]
General
Complete name                            : C:\Users\Prosit\Downloads\Rock Church - Life Without Limbs - Nick Vujicic.m4v
Format                                   : MPEG-4
Format profile                           : Base Media / Version 2
Codec ID                                 : mp42 (isom/iso2/mp41)
File size                                : 380 MiB
Duration                                 : 1 h 9 min
Overall bit rate                         : 759 kb/s
Encoded date                             : UTC 2021-07-20 09:47:47
Tagged date                              : UTC 2021-07-20 09:47:47
Writing application                      : HandBrake 1.3.3 2020061300

Video
ID                                       : 1
Format                                   : HEVC
Format/Info                              : High Efficiency Video Coding
Format profile                           : [email protected]@Main
Codec ID                                 : hvc1
Codec ID/Info                            : High Efficiency Video Coding
Duration                                 : 1 h 9 min
Bit rate                                 : 589 kb/s
Width                                    : 1 278 pixels
Height                                   : 720 pixels
Display aspect ratio                     : 16:9
Frame rate mode                          : Constant
Frame rate                               : 29.970 (30000/1001) FPS
Color space                              : YUV
Chroma subsampling                       : 4:2:0
Bit depth                                : 8 bits
Bits/(Pixel*Frame)                       : 0.021
Stream size                              : 295 MiB (78%)
Writing library                          : x265 3.2.1+1-b5c86a64bbbe:[Windows][GCC 9.2.0][64 bit] 8bit+10bit+12bit
Encoding settings                        : cpuid=1111039 / frame-threads=4 / numa-pools=24,0 / wpp / no-pmode / no-pme / no-psnr / no-ssim / log-level=2 / input-csp=1 / input-res=1278x720 / interlace=0 / total-frames=0 / level-idc=0 / high-tier=1 / uhd-bd=0 / ref=3 / no-allow-non-conformance / no-repeat-headers / annexb / no-aud / no-hrd / info / hash=0 / no-temporal-layers / open-gop / min-keyint=30 / keyint=300 / gop-lookahead=0 / bframes=4 / b-adapt=0 / b-pyramid / bframe-bias=0 / rc-lookahead=15 / lookahead-slices=4 / scenecut=40 / radl=0 / no-splice / no-intra-refresh / ctu=64 / min-cu-size=8 / no-rect / no-amp / max-tu-size=32 / tu-inter-depth=1 / tu-intra-depth=1 / limit-tu=0 / rdoq-level=0 / dynamic-rd=0.00 / no-ssim-rd / signhide / no-tskip / nr-intra=0 / nr-inter=0 / no-constrained-intra / strong-intra-smoothing / max-merge=2 / limit-refs=3 / no-limit-modes / me=1 / subme=2 / merange=57 / temporal-mvp / no-hme / weightp / no-weightb / no-analyze-src-pics / deblock=0:0 / sao / no-sao-non-deblock / rd=2 / selective-sao=4 / no-early-skip / rskip / fast-intra / no-tskip-fast / no-cu-lossless / no-b-intra / no-splitrd-skip / rdpenalty=0 / psy-rd=2.00 / psy-rdoq=0.00 / no-rd-refine / no-lossless / cbqpoffs=0 / crqpoffs=0 / rc=crf / crf=25.0 / qcomp=0.60 / qpstep=4 / stats-write=0 / stats-read=0 / ipratio=1.40 / pbratio=1.30 / aq-mode=2 / aq-strength=1.00 / cutree / zone-count=0 / no-strict-cbr / qg-size=32 / no-rc-grain / qpmax=69 / qpmin=0 / no-const-vbv / sar=1 / overscan=0 / videoformat=5 / range=0 / colorprim=1 / transfer=1 / colormatrix=1 / chromaloc=0 / display-window=0 / cll=0,0 / min-luma=0 / max-luma=255 / log2-max-poc-lsb=8 / vui-timing-info / vui-hrd-info / slices=1 / no-opt-qp-pps / no-opt-ref-list-length-pps / no-multi-pass-opt-rps / scenecut-bias=0.05 / no-opt-cu-delta-qp / no-aq-motion / no-hdr / no-hdr-opt / no-dhdr10-opt / no-idr-recovery-sei / analysis-reuse-level=5 / scale-factor=0 / refine-intra=0 / refine-inter=0 / refine-mv=1 / refine-ctu-distortion=0 / no-limit-sao / ctu-info=0 / no-lowpass-dct / refine-analysis-type=0 / copy-pic=1 / max-ausize-factor=1.0 / no-dynamic-refine / no-single-sei / no-hevc-aq / no-svt / no-field / qp-adaptation-range=1.00
Encoded date                             : UTC 2021-07-20 09:47:47
Tagged date                              : UTC 2021-07-20 09:47:47
Color range                              : Limited
Color primaries                          : BT.709
Transfer characteristics                 : BT.709
Matrix coefficients                      : BT.709
Codec configuration box                  : hvcC

Audio
ID                                       : 2
Format                                   : AAC LC
Format/Info                              : Advanced Audio Codec Low Complexity
Codec ID                                 : mp4a-40-2
Duration                                 : 1 h 9 min
Bit rate mode                            : Constant
Bit rate                                 : 161 kb/s
Channel(s)                               : 2 channels
Channel layout                           : L R
Sampling rate                            : 44.1 kHz
Frame rate                               : 43.066 FPS (1024 SPF)
Compression mode                         : Lossy
Stream size                              : 80.7 MiB (21%)
Title                                    : Stereo
Language                                 : English
Default                                  : Yes
Alternate group                          : 1
Encoded date                             : UTC 2021-07-20 09:47:47
Tagged date                              : UTC 2021-07-20 09:47:47


Still i dont get it to upload the video file. I noticed after a while on unchained site i got the message:   Figure i test out some pictures and pdfs next..

Hi Bro Earlz,

Thank you for the detailed testing results.

Sorry for the delay; for some reason, I didn't get this last notify email.

Anyway, over the last 2 days, I did some more testing on this issue and I did find an additional issue that only occurs in production.  You know, on a side note, in the background, we are actually working on making this very resilient so that free speech info can be posted and it cant be taken down.  That particular CDN is making it a little challenging to accept uploads > 100 meg.  However I think its fixed now.  We moved to a new asynchronous upload.

Could you please try these again and also on a side note please try one small file too if you have any problems.
Btw, when you upload your videos, they should appear in "Your channel" so you will know they uploaded.

Another note, the prayer you added a while back, schema changed, so your avatar and username (and everyones got erased)  -  and not because we can erase it (since its on a sidechain) because of the way the data is mapped.

Could you please try adding an avatar to your user record too?

Thanks!



  • earlzmoade
  • Developer

    • 284


    • 46
    • August 02, 2018, 03:22:01 AM
    more
Re: Biblepay Unchained Mobile Wallet Thread
« Reply #10 on: July 31, 2021, 02:19:38 PM »
Hello Brother Rob.

Quote
Hi Bro Earlz,

Thank you for the detailed testing results.

Sorry for the delay; for some reason, I didn't get this last notify email.

Anyway, over the last 2 days, I did some more testing on this issue and I did find an additional issue that only occurs in production.  You know, on a side note, in the background, we are actually working on making this very resilient so that free speech info can be posted and it cant be taken down.  That particular CDN is making it a little challenging to accept uploads > 100 meg.  However I think its fixed now.  We moved to a new asynchronous upload.

Could you please try these again and also on a side note please try one small file too if you have any problems.
Btw, when you upload your videos, they should appear in "Your channel" so you will know they uploaded.

Another note, the prayer you added a while back, schema changed, so your avatar and username (and everyones got erased)  -  and not because we can erase it (since its on a sidechain) because of the way the data is mapped.

Could you please try adding an avatar to your user record too?

Thanks!


I have retested uploading the "big" file and it worked just fine, fast upload and all. The file size was around half a gigabyte. I also tested upload a smaller 5-6mb video and it worked aswell.

So i was thinking in the video section could we add some diffrent categories for people and and like search index for recent uploaded , highest rated etc .. Would be a good idea i think. Im thinking like netflix with categories and such.

Avatar was easy enough to upload.

Then i tested to populate:  "Verify Account for Full Voting Weight" in the account section.
So i tested my cell phone number and country code +46  (sweden) but i just received the following error:
Code: [Select]
Error


We were unable to send your SMS. Please try including a +1 or a + plus the Country Code first before the phone number and try again. If the problem persists, please open a ticket in github with the example phone number or send an e-mail to [email protected]

Anyways i think Unchained beginning to look  pretty sweet man!

Joshua 1:9
Have i not commanded you?
Be strong and courageous. Do not be afraid;
do not be discouraged, for the Lord your God
will be with you wherever you go.


  • Rob Andrews
  • Administrator

    • 3850


    • 89
    • June 05, 2017, 08:09:04 PM
    • Patmos, Island Of
    more
Re: Biblepay Unchained Mobile Wallet Thread
« Reply #11 on: August 02, 2021, 02:05:08 PM »
Hello Brother Rob.

I have retested uploading the "big" file and it worked just fine, fast upload and all. The file size was around half a gigabyte. I also tested upload a smaller 5-6mb video and it worked aswell.

So i was thinking in the video section could we add some diffrent categories for people and and like search index for recent uploaded , highest rated etc .. Would be a good idea i think. Im thinking like netflix with categories and such.

Avatar was easy enough to upload.

Then i tested to populate:  "Verify Account for Full Voting Weight" in the account section.
So i tested my cell phone number and country code +46  (sweden) but i just received the following error:
Code: [Select]
Error


We were unable to send your SMS. Please try including a +1 or a + plus the Country Code first before the phone number and try again. If the problem persists, please open a ticket in github with the example phone number or send an e-mail to [email protected]

Anyways i think Unchained beginning to look  pretty sweet man!

Hi Bro. Earlz!

Thanks for testing man.
Thats very good to hear on the big upload (and the avatar), that we can maintain security and receive the file at the same time, as that could have been a big roadblock for us.

I completely like your ideas and agree-- with the category for Highest Rated (or trending), and Recent Uploaded, very nice ideas, yes we need those.  I was also thinking of adding a "town hall", IE a way for everyone to come together in one place and discuss things (IE sensitive topics we cant talk about on social media, IE coronavirus, or whatever).  (Both an instant type town hall that replaces the wallets Chat feature, and a longer term Comments type town hall that stays for users who want to talk long term).  We also need to add Comments to videos!  (That should bolt right on actually, since its reusable).

Im also aware that my videos are hogging up too much space in one area, simply because I uploaded them all but Im sure with these filters we can make it a good system.  Right now you can type in a search term, btw.

Thanks for the compliments, Im hoping with our sidechain we can eventually take the best of the three major types of social media, and make them work in the sidechain.  I feel like we are so far along already with the concept, we can do this (and also attract some c# devs to help as this is in c#).

Yeah, so on the phone number issue, checking into this now:  Ok yes, I do see a problem with intl phone numbers.  I had to make a change.  Could you please try again now with "+46" before your phone number and see if that fixed it?  On a side note, we do store the 'verified' flag as 1, but we don't actually penalize anyone yet (everyone still has full voting weight).  But I think it will be good in the future for the wikipedia idea (and for voting integrity).  If you could, please test some voting also, see if it behaves correctly on both videos and prayer comments?  When you change your vote on a distinct object, it does flip your vote.  (To show the algo, we can explain these are distinct votes per object by BiblePay Unchained Address).

On another related side note, I'm thinking that we can eventually propose to Link (or require) RandomX miners to be Social Media participants.  This would give our BBP-RandomX miners more revenue.  Basically what we would do is require the Unchained bbp address to be the one they mine to.  Then the pool would make sure the user has social media activity on the sidechain that month, otherwise they dont get paid.  Im thinking of activity like upvotes, downvotes, tips, comments, etc.   It might give us a new inrush of users also.  It would somewhat tend to restrict the big mining pools too.

Thanks!

« Last Edit: August 02, 2021, 02:31:23 PM by Rob Andrews »


  • earlzmoade
  • Developer

    • 284


    • 46
    • August 02, 2018, 03:22:01 AM
    more
Re: Biblepay Unchained Mobile Wallet Thread
« Reply #12 on: August 05, 2021, 05:21:44 AM »
Hello Rob.

Quote
Yeah, so on the phone number issue, checking into this now:  Ok yes, I do see a problem with intl phone numbers.  I had to make a change.  Could you please try again now with "+46" before your phone number and see if that fixed it?  On a side note, we do store the 'verified' flag as 1, but we don't actually penalize anyone yet (everyone still has full voting weight).  But I think it will be good in the future for the wikipedia idea (and for voting integrity).  If you could, please test some voting also, see if it behaves correctly on both videos and prayer comments?  When you change your vote on a distinct object, it does flip your vote.  (To show the algo, we can explain these are distinct votes per object by BiblePay Unchained Address).

So i tested again the verification for full voting weight ,  the SMS verification  , i still get the same error message as before.
I noticed a bug when i posted  in comments section of the prayer requests i noticed all of the comments  suddenly became from me although just the most recent one was. I send with a picture:




Other then that  the thumbs up/down works just fine aswell.

I also was thinking if we could implement some sort of random reward say 5-100bbp for watching videos , kinda like odysee/lbry does  and also im thinking if we could do some sort of reward , like reddit if you like the OP  posts and things you can give various rewards.  Just some thoughts flying around.

 
Joshua 1:9
Have i not commanded you?
Be strong and courageous. Do not be afraid;
do not be discouraged, for the Lord your God
will be with you wherever you go.


  • Rob Andrews
  • Administrator

    • 3850


    • 89
    • June 05, 2017, 08:09:04 PM
    • Patmos, Island Of
    more
Re: Biblepay Unchained Mobile Wallet Thread
« Reply #13 on: August 05, 2021, 07:35:27 AM »
Hello Rob.

So i tested again the verification for full voting weight ,  the SMS verification  , i still get the same error message as before.
I noticed a bug when i posted  in comments section of the prayer requests i noticed all of the comments  suddenly became from me although just the most recent one was. I send with a picture:




Other then that  the thumbs up/down works just fine aswell.

I also was thinking if we could implement some sort of random reward say 5-100bbp for watching videos , kinda like odysee/lbry does  and also im thinking if we could do some sort of reward , like reddit if you like the OP  posts and things you can give various rewards.  Just some thoughts flying around.

Hi Earlz!

Do you think you can PM me your Sweden phone # so I can debug?

I will look at this other issue as soon as Im back.

Thanks brother,
Rob

EDIT:  I fixed the Comments issue, where it repeated the User, please check if its fixed.
Hey I also put in the "Trending" and the "Recently Uploaded" please see!

« Last Edit: August 05, 2021, 09:50:58 AM by Rob Andrews »


  • earlzmoade
  • Developer

    • 284


    • 46
    • August 02, 2018, 03:22:01 AM
    more
Re: Biblepay Unchained Mobile Wallet Thread
« Reply #14 on: August 06, 2021, 02:11:05 AM »
Mornin.

I retested the SMS verification and it works just fine for me now.

Code: [Select]
Sent


We sent you a pin. Please enter it on your account record, and then you will be verified!

So it looks solid.
I also entered another comment and now it looks fine.
I will do some other testing with the pdfs and what not.
Joshua 1:9
Have i not commanded you?
Be strong and courageous. Do not be afraid;
do not be discouraged, for the Lord your God
will be with you wherever you go.